• Anuncio

UCL FINAL - Barcelona vs Manchester United 1080i-Multiaudio

Colaborador
Avatar de Usuario
Mensajes: 2285
Registrado: 06 Jun 2009, 12:11
Agradecido : 0 vez
Agradecimiento recibido: 21837 veces

UCL FINAL - Barcelona vs Manchester United 1080i-Multiaudio

Notapor xevious » 04 Jun 2011, 10:23

Imagen



Temporada: 2010/2011
Fecha: 28/05/2011
DVBrip: TV3
Idioma: CATALAN-CASTELLANO
Vídeo: x264
Audio: AC3
Resolución: 1440x1080 (16:9)
Duración: Previo 21min, 1Parte 1h 2min, 1h 28min 2Parte, Post 1h 45min
Tamaño: Previo 1.3gb, 1Parte 4.5gb, 2Parte 6.4gb, Post 6.4gb
Ripper: Xevious
Montaje: Xevious

Información del montaje:

Ripeo propio de la emision de TV3 HD. El previo y el post del partido pese a estar capturados de la emision en HD no es HD real, es standar. Intenté reecalarlo a resolucion normal, pero tube problemas, así que lo dejé tal cual. El partido si que es en HD Real.
Los audios que lleva incorporados son "TV3-Catalunya Radio-Rac1-TVE-Onda Cero-Ser-Sonido ambiente"


Media info primer tiempo

Oculto:
H:\videosHD\Futbol\Final Champions League 2011\1080i\P1-UCL-Final-2011-Barcelona-vs-Manchester-1080i-Multiaudio.by.xevious.mkv
General
Complete name : H:\videosHD\Futbol\Final Champions League 2011\1080i\P1-UCL-Final-2011-Barcelona-vs-Manchester-1080i-Multiaudio.by.xevious.mkv
Format : Matroska
File size : 4.20 GiB
Duration : 1h 2mn
Overall bit rate : 9 642 Kbps
Encoded date : UTC 2011-05-31 17:42:16
Writing application : mkvmerge v4.0.0 ('The Stars were mine') built on Jun 6 2010 16:18:42
Writing library : libebml v1.0.0 + libmatroska v1.0.0
Video #1
ID : 1
Format : AVC
Format/Info : Advanced Video Codec
Codec ID : V_MPEG4/ISO/AVC
Duration : 1h 2mn
Bit rate : 7 722 Kbps
Width : 1 440 pixels
Height : 1 080 pixels
Display aspect ratio : 16:9
Frame rate : 25.000 fps
Bits/(Pixel*Frame) : 0.199
Stream size : 3.37 GiB (80%)
Audio #2
ID : 2
Format : AC-3
Format/Info : Audio Coding 3
Codec ID : A_AC3
Duration : 1h 2mn
Bit rate mode : Constant
Bit rate : 384 Kbps
Channel(s) : 6 channels
Channel positions : Front: L C R, Surround: L R, LFE
Sampling rate : 48.0 KHz
Video delay : 24ms
Stream size : 171 MiB (4%)
Title : TV3
Language : Catalan
Audio #3
ID : 3
Format : AC-3
Format/Info : Audio Coding 3
Codec ID : A_AC3
Duration : 1h 2mn
Bit rate mode : Constant
Bit rate : 192 Kbps
Channel(s) : 2 channels
Channel positions : L R
Sampling rate : 48.0 KHz
Video delay : 24ms
Stream size : 85.7 MiB (2%)
Title : Catalunya Radio
Language : Catalan
Audio #4
ID : 4
Format : AC-3
Format/Info : Audio Coding 3
Codec ID : A_AC3
Duration : 1h 2mn
Bit rate mode : Constant
Bit rate : 192 Kbps
Channel(s) : 2 channels
Channel positions : L R
Sampling rate : 48.0 KHz
Video delay : 24ms
Stream size : 85.7 MiB (2%)
Title : RAC 1
Language : Catalan
Audio #5
ID : 5
Format : AC-3
Format/Info : Audio Coding 3
Codec ID : A_AC3
Duration : 1h 2mn
Bit rate mode : Constant
Bit rate : 192 Kbps
Channel(s) : 2 channels
Channel positions : L R
Sampling rate : 48.0 KHz
Video delay : 24ms
Stream size : 85.7 MiB (2%)
Title : TVE
Language : Spanish
Audio #6
ID : 6
Format : AC-3
Format/Info : Audio Coding 3
Codec ID : A_AC3
Duration : 1h 2mn
Bit rate mode : Constant
Bit rate : 192 Kbps
Channel(s) : 2 channels
Channel positions : L R
Sampling rate : 48.0 KHz
Video delay : 24ms
Stream size : 85.7 MiB (2%)
Title : Onda Cero
Language : Spanish
Audio #7
ID : 7
Format : AC-3
Format/Info : Audio Coding 3
Codec ID : A_AC3
Duration : 1h 2mn
Bit rate mode : Constant
Bit rate : 192 Kbps
Channel(s) : 2 channels
Channel positions : L R
Sampling rate : 48.0 KHz
Video delay : 24ms
Stream size : 85.7 MiB (2%)
Title : SER
Language : Spanish
Audio #8
ID : 8
Format : AC-3
Format/Info : Audio Coding 3
Codec ID : A_AC3
Duration : 1h 2mn
Bit rate mode : Constant
Bit rate : 384 Kbps
Channel(s) : 6 channels
Channel positions : Front: L C R, Surround: L R, LFE
Sampling rate : 48.0 KHz
Video delay : 24ms
Stream size : 171 MiB (4%)
Title : Sonido Ambiente


Alojado en Netload y otros servidores. "Los enlaces de Netload són los unicos que están en cuenta Premium, todos los demás seguramente caducarán con el tiempo y no los volveré a resubir."

Si algun enlace no os carga en el JDownloader, descargarlo por WEB, dandole en el icono del disco duro.


DLC


Previo

Ocultar está ON
La Administración del Sitio requiere que esté registrado y se haya identificado para ver este mensaje.


1 Parte

Ocultar está ON
La Administración del Sitio requiere que esté registrado y se haya identificado para ver este mensaje.


2 Parte

Ocultar está ON
La Administración del Sitio requiere que esté registrado y se haya identificado para ver este mensaje.


Post

Ocultar está ON
La Administración del Sitio requiere que esté registrado y se haya identificado para ver este mensaje.
Última edición por xevious el 09 Sep 2013, 12:55, editado 1 vez en total
Si lo crees oportuno puedes crearte una cuenta premium mediante mis enlaces, gracias:
Netload:
http://netload.in/index.php?refer_id=QN3iE0F&id=5
http://ul.to/ref/3974666

Mis aportes

Anuncio

     

__rotator_param_f

Mensajes: 29
Registrado: 31 Dic 2010, 16:18
Agradecido : 1 vez
Agradecimiento recibido: 0 vez

Re: UCL FINAL - Barcelona vs Manchester United 1080i-Multiau

Notapor poltron » 06 Jun 2011, 01:50

Impresionante, también en català y ¡sonido ambiente! :clap: moltes gràcies! :violin:

Colaborador
Avatar de Usuario
Mensajes: 2285
Registrado: 06 Jun 2009, 12:11
Agradecido : 0 vez
Agradecimiento recibido: 21837 veces

Re: UCL FINAL - Barcelona vs Manchester United 1080i-Multiau

Notapor xevious » 06 Jun 2011, 09:27

Proximamente subiré el mismo partido en 720p "imagen de tve hd" con los mismos audios de este montaje, todo el previo, partido y post partido.
Si lo crees oportuno puedes crearte una cuenta premium mediante mis enlaces, gracias:
Netload:
http://netload.in/index.php?refer_id=QN3iE0F&id=5
http://ul.to/ref/3974666

Mis aportes

Avatar de Usuario
Mensajes: 193
Registrado: 21 Ene 2011, 19:44
Agradecido : 19 veces
Agradecimiento recibido: 8 veces

Re: UCL FINAL - Barcelona vs Manchester United 1080i-Multiau

Notapor hondilla » 06 Jun 2011, 11:57

:dance: :dance:
Merçi!!!!

Mensajes: 8
Registrado: 24 Dic 2010, 11:56
Agradecido : 2 veces
Agradecimiento recibido: 1 vez

Re: UCL FINAL - Barcelona vs Manchester United 1080i-Multiau

Notapor rimbamblu » 30 Jul 2011, 19:54

thanks

Mensajes: 1
Registrado: 24 Oct 2011, 05:04
Agradecido : 0 vez
Agradecimiento recibido: 0 vez

Re: UCL FINAL - Barcelona vs Manchester United 1080i-Multiaudio

Notapor gatoalbo » 24 Oct 2011, 05:09

muchas gracias!!! :dance:

Administrador del Sitio
Avatar de Usuario
Mensajes: 2764
Registrado: 31 Ene 2009, 15:39
País:
South Africa
Agradecido : 15 veces
Agradecimiento recibido: 903 veces

Re: UCL FINAL - Barcelona vs Manchester United 1080i-Multiaudio

Notapor Stroped » 31 Oct 2011, 20:58

Gracias excelente aporte
AYUDA A MIS SUBIDAS COMPRANDO UNA PREMIUM EN

NETLOAD

UPLOADED

Avatar de Usuario
Mensajes: 11
Registrado: 06 Nov 2011, 05:37
Agradecido : 0 vez
Agradecimiento recibido: 1 vez

Re: UCL FINAL - Barcelona vs Manchester United 1080i-Multiaudio

Notapor Edu1980 » 06 Nov 2011, 06:18

Genial aporte.

Muchas gracias.
Imagen

Mensajes: 3
Registrado: 04 Nov 2010, 21:44
Agradecido : 0 vez
Agradecimiento recibido: 0 vez

Re: UCL FINAL - Barcelona vs Manchester United 1080i-Multiaudio

Notapor jaaume » 24 Nov 2011, 22:23

muchas gracias por el aporte compi

un saludo

Mensajes: 1
Registrado: 10 Ene 2013, 01:01
Agradecido : 0 vez
Agradecimiento recibido: 0 vez

Re: UCL FINAL - Barcelona vs Manchester United 1080i-Multiaudio

Notapor FCBarca » 10 Ene 2013, 01:17

Any chance of renewed links?

Siguiente

Volver a Deportes



¿Quién está conectado?

Usuarios navegando por este Foro: No hay usuarios registrados visitando el Foro y 0 invitados